Descargar El Coyote y el Correcaminos (Serie Completa)(Latino) - 4 de Mayo 2016 - SUPER MEGA
Inicio » 2016 » Mayo » 4 » Descargar El Coyote y el Correcaminos (Serie Completa)(Latino)
3:40 AM
Descargar El Coyote y el Correcaminos (Serie Completa)(Latino)

 

 



El Coyote: es el Coyote el personaje que despierta las simpatías de la audiencia, a pesar de ser siempre el agresor, a causa de sus continuamente inútiles esfuerzos por capturar al Correcaminos. Éste carece prácticamente de personalidad, siendo más bien el objeto inalcanzable del deseo del Coyote que un personaje propiamente dicho. 
El Coyote apareció más tarde en algunos cortometrajes de Bugs Bunny, así como también en los dibujos de Little Beeper presentada en Tiny Toon Adventures. En ellos, traicionando el espíritu de la serie original, el Coyote puede hablar. 


El Correcamino: es el Correcamino un pájaro velocísimo (basado en un animal real, el ave Geococcyx californianus, en inglés “greater roadrunner”) es perseguido por las carreteras del desierto del sudoeste de Estados Unidos por el hambriento Willy E Coyote (Conocido simplemente como "El Coyote" . A pesar de sus numerosas e ingeniosas tentativas, el Coyote no consigue nunca capturar o matar al Correcaminos. Muy al contrario, todas sus elaboradas tácticas terminan por perjudicarle a él, convertido en la víctima de la exageradísima (e inocua) violencia de la serie

Sonido "Bip" 

El Correcaminos fue doblado por Paul Julian, que trabajaba como dibujante de fondos para la unidad de Friz Freleng. Julian hizo por primera vez el sonido en los estudios de la Warner Bros (imitando una bocina de coche) como una forma de apartar a la gente cuando tiene prisa. Julian realizó numerosas variaciones del sonido en una sola sesión de grabación. El editor Treg Brown se sorprendió y sugirió hacer más versiones. 
La utilización de un miembro del equipo para interpretar una voz causó un problema con el sindicato de actores. Jones estaba obligado a aceptarlo: para las siguientes sesiones de grabación, se utilizaría un actor acreditado. Se sorteó el problema reutilizando la grabación inicial de Julian (y las variantes de Brown) en todos los futuros dibujos del Correcaminos. 
Debido a problemas con el sindicato, los estudios rehusaron reconocer la voz real del Correcaminos durante décadas. Algunas fuentes declararon que Mel Blanc interpretó la voz, mientras otros fueron demasiado lejos al decir que la voz era un

 

General
Complete name               : H:\El coyote y el correcamino\01 - Fast & Furry-Ous.avi
Format                      : AVI
Format/Info                 : Audio Video Interleave
File size                   : 49.4 MiB
Duration                    : 6mn 37s
Overall bit rate            : 1 042 Kbps
Movie name                  : 01 - Fast & Furry-Ous bolitas
Writing application         : Lavf52.33.0

Video
ID                          : 0
Format                      : MPEG-4 Visual
Format profile              : Simple@L3
Format settings, BVOP       : No
Format settings, QPel       : No
Format settings, GMC        : No warppoints
Format settings, Matrix     : Default (H.263)
Codec ID                    : XVID
Codec ID/Hint               : XviD
Duration                    : 6mn 37s
Bit rate                    : 902 Kbps
Width                       : 720 pixels
Height                      : 490 pixels
Display aspect ratio        : 3:2
Frame rate                  : 24.000 fps
Color space                 : YUV
Chroma subsampling          : 4:2:0
Bit depth                   : 8 bits
Scan type                   : Progressive
Compression mode            : Lossy
Bits/(Pixel*Frame)          : 0.107
Stream size                 : 42.8 MiB (87%)
Writing library             : XviD 1.2.1 (UTC 2008-12-04)

Audio
ID                          : 1
Format                      : MPEG Audio
Format version              : Version 1
Format profile              : Layer 3
Mode                        : Joint stereo
Mode extension              : MS Stereo
Codec ID                    : 55
Codec ID/Hint               : MP3
Duration                    : 6mn 37s
Bit rate mode               : Constant
Bit rate                    : 128 Kbps
Channel(s)                  : 2 channels
Sampling rate               : 48.0 KHz
Compression mode            : Lossy
Stream size                 : 6.06 MiB (12%)
Alignment                   : Aligned on interleaves
Interleave, duration        : 24 ms (0.58 video frame)
Interleave, preload duratio : 24 ms

 

ACTUALIZADA 4-5-2016

https://mega.nz/#F!f9YmgbCT!yEXuxtlgVCgnShDTRb4sfg

 

CAPITULO 23

 

http://downloads.ziddu.com/download/25443840/23_To_Beep_Or_Not_To_Beep.avi.html

Categoría: Series Animadas | Vistas: 9372 | Agregado por: goldenboy | Etiquetas: completa, el coyote, descargar, gratis, y el correcaminos, 90s, Serie | Valoración: 5.0/1
Total de comentarios: 9
avatar
0 Spam
1
LINK CAIDOS RESUBIR POR FAVOR GRACIAS.
avatar
0
2
Ya revise y están el linea
avatar
0 Spam
3
estan caidos los links lolabits no funciona mas
avatar
0 Spam
4
Muchas gracias por subir esta maravillosa serie de mi infancia, saudos desde Galicia - España
avatar
0 Spam
5
muy buen aporte gracias y espero ke sigas subiendo mas , descarga perfecta por mega , solo un problema con el capitulo 23 no se puede descargar lo demás excelente
avatar
0
6
YA subi el 23
avatar
0 Spam
7
Falta el capitulo 39. Por lo demas esta Excelente
avatar
0 Spam
8
falta el 39
avatar
0 Spam
9
Amigos, falta el capítulo 39, excelente tarea, Jesús está con nosotros.
avatar
Flag Counter