Descargar Momias Aquí (Mummies Alive!) [Latino] - 42/42 - 16 de Julio 2015 - SUPER MEGA
Inicio » 2015 » Julio » 16 » Descargar Momias Aquí (Mummies Alive!) [Latino] - 42/42
8:54 AM
Descargar Momias Aquí (Mummies Alive!) [Latino] - 42/42

 

 


 

¡Momias aquí!08/42 [Latino/Italiano][TVRIPHD]

 

Datos de la Serie
Título Original: Mummies Alive!
Título Español: momias aqui
Año: 1997
País: EE.UU.
Productora/Canal: dic,

Datos del Proyecto

General
Unique ID                   : 242291941723042326371624629367712809814 (0xB647BB079B38A29C8B045BF9B2788356)
Complete name               : G:\Momias aqui-Serie Completa\Momias Aqui 1x01_www.omega.ucoz.es.mkv
Format                      : Matroska
Format version              : Version 2
File size                   : 271 MiB
Duration                    : 21mn 53s
Overall bit rate            : 1 729 Kbps
Encoded date                : UTC 2014-12-22 15:56:44
Writing application         : mkvmerge v5.8.0 ('No Sleep / Pillow') built on Sep  2 2012 15:37:04
Writing library             : libebml v1.2.3 + libmatroska v1.3.0

Video
ID                          : 1
Format                      : MPEG-4 Visual
Format profile              : Simple@L1
Format settings, BVOP       : No
Format settings, QPel       : No
Format settings, GMC        : No warppoints
Format settings, Matrix     : Default (H.263)
Codec ID                    : V_MS/VFW/FOURCC / DX50
Codec ID/Hint               : DivX 5
Duration                    : 21mn 53s
Bit rate                    : 1 567 Kbps
Width                       : 704 pixels
Height                      : 400 pixels
Display aspect ratio        : 4:3
Original display aspect rat : 16:9
Frame rate mode             : Constant
Frame rate                  : 25.000 fps
Color space                 : YUV
Chroma subsampling          : 4:2:0
Bit depth                   : 8 bits
Scan type                   : Progressive
Compression mode            : Lossy
Bits/(Pixel*Frame)          : 0.223
Stream size                 : 245 MiB (91%)
Writing library             : Lavc52.42.0
Default                     : Yes
Forced                      : No

Audio
ID                          : 2
Format                      : MPEG Audio
Format version              : Version 1
Format profile              : Layer 3
Mode                        : Joint stereo
Mode extension              : MS Stereo
Muxing mode                 : Header stripping
Codec ID                    : A_MPEG/L3
Codec ID/Hint               : MP3
Duration                    : 21mn 53s
Bit rate mode               : Constant
Bit rate                    : 128 Kbps
Channel(s)                  : 2 channels
Sampling rate               : 44.1 KHz
Compression mode            : Lossy
Stream size                 : 20.0 MiB (7%)
Default                     : Yes
Forced                      : No

Text
ID                          : 3
Format                      : UTF-8
Codec ID                    : S_TEXT/UTF8
Codec ID/Info               : UTF-8 Plain Text
Default                     : Yes
Forced                      : No

 

 

 

 

CONTRASE~A _www.omega.ucoz.es

 

http://lolabits.es/migoldenboy/Momias+aqui-Serie+Completa

Categoría: Proyectos OMEGA | Vistas: 2277 | Agregado por: goldenboy | Etiquetas: completa, Latino, gratis, momias aqui, MKV, Serie, descargar | Valoración: 0.0/0
Total de comentarios: 5
avatar
0 Spam
1
NO FUNCIONA LINKS CAIDOS
avatar
0
2
todo esta disponible solo pon la contrasena pass es esta www.omega.ucoz.es
avatar
0 Spam
3
capitulos 33-41 y 42 no se pueden descargar con ningun servidor
avatar
0
4
resubiendo
avatar
0 Spam
5
Colega el LINKS esta caido, Subelo.
avatar
Flag Counter